Ffmpeg Hls Audio

Hi, I'm trying to encode a aac file that is playable in an embedded player. These examples use -c copy to stream copy (re-mux) from the input to to the output. It supports almost all audio/video codecs (h264, h265, vp8, vp9, aac, opus, etc. 2 of nginx-rtmp-module I've added support for HLS variant playlists. Now we want to run FFMPEG so that it listens on the ports we specified, captures the unicast video and audio data, transcodes it into HLS segments and stores the HLS data to a publicly accesible area of your web server. Otherwise you have to compile from source. ) and file formats (mp4, flv, mkv, ts, webm, mp3 etc. I've been lurking for a while now and I finally created an account because I'm stuck on this particular problem. ffmpeg has an option to set the segment number where it must start reading. m3u8 manifest. How to transcode HLS/MP4 to Facebook live stream via FFmpeg. In this article, I’m going to help you learn how to add multiple audio tracks to a single video file using FFmpeg tool. How can I use ffmpeg to reduce the size of a video by lowering the quality (as minimally as possible, naturally, because I need it to run on a mobile device that doesn't have much available space)?. 官网 ffmpeg Documentation 命令格式: 参考:视频压缩:I帧、P帧、B帧 最简单例子: 修改视频帧率: 截图命令:截取一张352x240尺寸大小,格式为j. m3u8 streams for testing. Looking for online definition of FFmpeg or what FFmpeg stands for? which again leverages HLS to implement its application with software for speech audio. The array is reallocated when its number of elements reaches powers of 2. Beginning with audio conversion, I will be using two samples from Cut Chemist's live performances that are of mp3 and aif file types. Transcoding streams with FFmpeg; FAJAR-TV; PONTV; 75 Tahun Stephen Hawking, Pelajaran Hidup dari Fis Awstas Setup for VPS Centos 6. qt filename extensions. To create a HLS video stream you need to install FFmpeg. The Zencoder service provides customers with high quality, reliable encoding of on-demand video and access to unlimited video encoding power without having to pay for, manage and scale expensive. ffmpeg HLS Multiple audio tracks renditions m3u8. [NULL @ 000000ebd70f13a0] start time for stream 2 is not set in estimate_timings_from_pts. This module aims to serve audio-only track directly on NGINX, without the necessity to. 975238095238095 -hls_segment_type mpegts -hls_playlist_type vod test. It is composed of a collection of free software / open source libraries. HLS need HTTP/HTTPS protocol which allows to stream from a regular web server. Conclusion. An attendee asked about creating an HLS manifest with FFmpeg, which I didn’t cover, opting instead to show Bento4. Win32 , possibly Mac and Linux too With ""Copy Information"" all tags within the audio or some video files will be copied, however, there should be user options to enable/disable which exact tags get copied to the clipboard and also in which list order e. Video encoding, decoding and transcoding are some of the most popular applications of FFmpeg. The -vn option tells ffmpeg to ignore video. I thought I would use ffmpeg to first encode the audio files to aac 128kbps and then make the file available as a HLS stream. FFMpeg es un potentísimo sistema para grabar, capturar o transformar vídeos y formatos, con el que se puede realizar casi cualquier operación de vídeo. As previously mentioned FFMPEG supports many video/audio codecs. m3u8-f hls defines the output format HLS-hls_time 4 slices the video and audio into segments with a duration of 4 seconds. Description. for development we use it on Mac for testing and just stream a video source from a input movie. Sep 1, 2015 10:15 AM EDT. Example: When I watch any HLS stream and the stream isnt working anymore (need to update) then ffmpeg dosent stop for a longer while and I see the info "Last messages repeated" X times running go on and does increase the counter. Create each video variant. Alternatively you can tweak our existing presets and save them as your own for use over and over in the web UI, watch folder or API. ' Video Transcoding "YouTube-Style" with ffmpeg ' posted by Jonathan Lathigee. There is a feature request opened on FFmpeg bugtracker: https://trac. A continuación, una guía con FFMpeg: Stream your windows desktop using FFMpeg […]. Therefore, the amortized cost of adding an element is constant. 198 thoughts on “ iPhone HTTP Streaming with FFMpeg and an Open Source Segmenter ” Thomas Glasgow August 22, 2010 at 3:35 am. Recommend:ffmpeg - HTTP Live Streaming MPEG TS segment later save to a web server and play with Quicktime by playing the. It can also convert between arbitrary sample rates and resize video on the fly with a high quality polyphase filter. It can also convert between arbitrary sample rates and re-size video on the fly with a high quality polyphase filter. FFmpeg Builds. If you are new to this tool, here are some handy commands that will give you a better idea about the capabilities of this powerful tool. This plugin is easily pluggable in any Flash Player thanks to its simple API (NetStream based) and it is also compatible and already plugged with the following players:. * original version which uses ffmpeg to handle HLS streams. Say for example, to convert mp4 file to avi file, run: $ ffmpeg -i video. FFmpeg is one of the most versatile software to convert media. m3u8 out-%04d. ~/bin/ffmpeg -i test. Since all most all the video streaming services use web-optimized video MP4 format, we are going to download M3U8 video files with FFmpeg and convert them to MP4 format. With RTMP server your video files have a latency of only 1 or 2 seconds, but then after encoding on the server to HLS for a html5 player the latency is much higher perhaps in the order of 10 seconds, taking in to account this is for vod, meaning video streaming the latency is not that important. During these years I made some demos about FFmpeg and other multimedia projects. The cpu usage is about 59% though minimum on a quad core i7 which will bloat up to almost 80% and back (much higher and audio issues start with our USB audio capture). 264 - decrease size, maintain qu. HLS supported formats Protocol specification doesn't limit any audio/video formats. mp4 -vcodec copy -acodec copy -f flv. ffmpeg -i output. There is a feature request opened on FFmpeg bugtracker: https://trac. Level 1 (0 points) sylvain from le hohwald Oct 1, 2018 1:10 PM Dear Apple Community, How can I convert an mp4 video file having inside 3 audio tracks (english, german and french) to an HLS playlist having :. Possible improvements/fixes. [Video Coming soon] In this tutorial series i will use Ffmpeg, Nginx + Nginx-rtmp-module + Nodejs create live streaming service allow user connect their camera to their account and display live video on user’s dashboard. BTW, I'd love to make. Stream #0:3[0x102](por): Audio: aac_latm ([17][0][0][0] / 0x0011), 48000 Hz, stereo, fltp (visual impaired) How to create the HLS streams. The container to use is flash (flv), the encoder is libx264 and the audio encoder is aac (libfaac). First, I made an endeavor to use RTSP stream from Vstarcam C7823WIP camera as a source for ffmpeg and hls. Here is some of what I learned. [NULL @ 000000ebd70f13a0] start time for stream 2 is not set in estimate_timings_from_pts. 0 and LGPL 3. Tamilgun player m3u8. Downloading HLS videos with FFmpeg is way easier than you think. 264 file over UDP/RTP. I've been trying to do something what seems very simple: prepare an audio stream for HTTP Live Streaming. The previous section demonstrated how FFmpeg can be used to generate HLS for live streams. 0 ; aac codec is mandatory (if you use Recording > Custom FFmpeg > to URL > select flv container, with rtmp URL to FB live 360 and aac audio codec + x264 video codec). 265 Encoder from Radio & TV Broadcasting Equipment Supplier or Manufacturer-Chengdu Shineco Technology Co. Mkchromecast is capable of using lossy and lossless audio formats provided that ffmpeg, avconv (Linux), or parec (Linux) are. Moreover it supports again all streaming protocols (http, rtmp, rtsp, hls, etc. Codec ID : 15 In Audio section. Media streams are encoded,. for development we use it on Mac for testing and just stream a video source from a input movie. FFmpeg is portable and open software which is used for performing several different multimedia file conversion, audio file splitting or streaming and downloading HLS videos. ffmpeg 目录下新建 hls 目录 #第二种. The purpose of these scripts is to perform a VERY FAST…. Install FFMPEG on Ubuntu # apt install ffmpeg. Mavens on TheStreet. To disable this behavior and manually choose desired streams use the -map option. For example to compute the CRC of the input audio converted to PCM unsigned 8-bit and the input video converted to MPEG-2 video, use the command:. 2 Free Download - VideoHelp. ffmpeg -i which only searches a short distance into the input file. Using a value greater than 0 will cause the playlist to use a sliding window of hls_list_size length. For this task we will use ffmpeg, a powerful tool that supports conversion of various video formats from one to another, including HLS both as input and output. However, I vowed to learn and write about it, and with the help of Shaun Procter from Echo360 in Australia, have managed to produce the following working command line:. ffmpeg -h full -live_start_index. You can view it as an extension to the standard HTML5 video/audio functionality that allows the media element to play HLS (the most widely-used live streaming format) & MPEG-DASH (the promising up-and-comer). Since not all video files have valid info in header, blanks appear in playlist. ts -codec copy -map 0 -f segment -segment_list playlist. Level 1 (0 points) sylvain. x January (7) 2016 (42) December (1) November (1) October (11) July (3) June (1) May (2) April (13). To my knowledge ffmpeg is the only tool that could possibly do this. mp4 -an -c:v libx264 -preset veryslow -profile:v high -level 4. SDL Role and responsibilities : > Implementing the AV sync functionality > Implementing the demuxer to parse the TS segments to get the Video and Audio packets. A continuación, una guía con FFMpeg: Stream your windows desktop using FFMpeg […]. To re-stream using FFmpeg, use the -re option when encoding the video file for Wowza Streaming Engine™ media server software. 265/HEVC MPEG Dynamic Adaptive Streaming over HTTP (MPEG-DASH) P2P Streaming Streaming - Mobile. HLS need HTTP/HTTPS protocol which allows to stream from a regular web server. 📼 Python FFmpeg Video Streaming. If an FFMPEG option is available we recommend you try that first as it will often be faster and include audio support. 975238095238095 -hls_segment_type mpegts -hls_playlist_type vod test. ts files and the m3u8 file, but some of the. Codec ID : 15 In Audio section. mp4 -codec copy -hls_time 0. FFmpeg作为转码,HLS切片,m3u8更新工具。. Use FFMPEG As Encoder for Video Streaming Tutorial. Using a value greater than 0 will cause the playlist to use a sliding window of hls_list_size length. m3u8 -hls_time: duration of each segment -hls_list_size: number of segments to keep -hls_flags delete_segments: delete outdated. In essence, FFMPEG is a command-line utility for converting, recording, splicing, editing, playing, encoding, muxing, demuxing, and streaming multimedia files. Fundamentals of Investing. I have one question, How to add second audio source to each video profile (960×540 and 1920×1080). mkv is a Matroska container file and accepts video, audio and subtitle streams, so ffmpeg will try to select one of each type. FFmpeg is a free and open-source project consisting of a vast software suite of libraries and programs for handling video, audio, and other multimedia files and streams. Subsonic's transcoding engine allows for streaming of media that would normally not be streamable, for instance lossless formats. Btw, this is my current command for convert multiple mkv from single click bat file: ffmpeg -y -loglevel panic -i “input/%~1. 📼 Python FFmpeg Video Streaming. Example: When I watch any HLS stream and the stream isnt working anymore (need to update) then ffmpeg dosent stop for a longer while and I see the info "Last messages repeated" X times running go on and does increase the counter. How to fade out mp4 audio AND video with FFmpeg? 2. Beginning with audio conversion, I will be using two samples from Cut Chemist's live performances that are of mp3 and aif file types. When remove -hls_flags single_file the splited ts files can work. a audio part of the stream. It's pretty big, and it seems to increase over time. HLS is supported on desktop browsers, smart TVs, and both Android and iOS mobile devices. HTTP Live Streaming audio support → Support for HLS alternate audio/subtitles: This kind of HTTP Live Streaming doesn't seem supported by FFmpeg currently. Dismiss Join GitHub today. You should use a recent version of FFmpeg (version 1. I have searched before, but have not seen any specific or technical algorithm that ffmpeg uses to justify how frame counts are defined. ffmpeg-php provides access to the many audio and video formats supported by ffmpeg. This document shows in order commands needed to get from a raw mov file to encrypted assets packaged for DASH or HLS. wav" Here, pcm_16le is a very standard PCM audio codec used in. hls_flags delete_segments Segment files removed from the playlist are deleted after a period of time equal to the duration of the segment plus the duration of the playlist. Use an HLS stream as source. How to fade out mp4 audio AND video with FFmpeg? 2. At its core is the FFmpeg program itself, designed for command-line-based processing of video and audio files, and widely used for format transcoding, basic editing (trimming and concatenation), video scaling, video post. So, when I decided to learn about ffmpeg, and in the process about how digital video and audio applications work, I decided to document the process and present it as a tutorial. Latest reply on Oct 1, 2018 1:10 PM by sylvain from le hohwald. Custom MPEG-TS Input¶ Requirement¶. So I am using a combination of executables: ffmpeg (extract audio for Nero), Nero AAC Encoder (audio encoding), x264 (video encoding), ffmpeg (mux audio/video to create TS file), and an open source segmenter (to create m3u8 for each bitrate). And still, in 2014, RTMP is the de facto standard for the following use cases:. Each lesson covers theory and practice so you can choose the best option and use the optimal command syntax. Bài viết liên quan. Then mkvmerge or other programs can process it correctly Edit: actually better is to demux it with eac3to, and reimport the aac with mkvmerge (this way you keep original audio). In summary, I couldn't get the bitrate I wanted on my videos. I've done some significant experimentation with different options for encoding MPEG-2 video from a live video source with ffmpeg. aac D Trong bài viết này mình sẽ trình bày một cách cơ bản để ứng dụng kỹ thuật Http Live Streaming (HLS) để. ts -codec copy -map 0 -f segment -segment_list playlist. First, I made an endeavor to use RTSP stream from Vstarcam C7823WIP camera as a source for ffmpeg and hls. Audio - MP3, WAV, WMA, M4A, AAC, and OGG are all common audio formats which are supported by FFmpeg. Healthsouth (HLS) Highlighted As Weak On High Volume. Now I can't figure out how to let ffmpeg pick its default video stream and default audio stream and then all subtitles. 15 can work. ts When playing the samples in the demo app, I can see all audio/subtitle tracks. What is FFmpeg? FFmpeg is a great open source library/tool that can decode and encode any video format to one another. 264 - decrease size, maintain qu. Recommend:ffmpeg - HTTP Live Streaming MPEG TS segment later save to a web server and play with Quicktime by playing the. m3u8 and its corresponding segmentsfile. An attendee asked about creating an HLS manifest with FFmpeg, which I didn't cover, opting instead to show Bento4. BTW, I'd love to make. CPU Usage when using an EC2 c3. Such files typically have the. Most modern web browsers and even mobile phone browsers can stream audio and video with HTML5. If possible, store the HLS fragments generated to an high-speed SSD helps maintain smooth streaming experiences. Re-streaming is when a server broadcasts an encoded video file as though it were a live stream. We used FFmpeg for that purpose. FFmpeg is a complete, cross-platform solution to record, convert and stream audio and video. At least we know it is a bug introduced in latest ffmpeg. Healthsouth (HLS) Highlighted As Weak On High Volume. HTTP Live Streaming from Apple enables video and audio to be sent from a Web server to iPhones, iPods, iPads, desktop computers, and other networked devices. Ask Question And finally you may wish to produce a segmented TS file with playlist for use with HTTP Live Streaming (HLS). [FFmpeg-devel] avformat/protocols: check protocol name before foreach [FFmpeg-devel] avformat/protocols: check protocol name before foreach - - - - 1--2020-01-31: Steven Liu: New [FFmpeg-devel] avformat/hlsenc: compare without the last directory separator in get_relative_url. FFmpeg is a command line-only program that allows you to convert videos and audio into different formats, as well as record. Dismiss Join GitHub today. FFmpeg is an open-source audio/video processing software which is capable of grabbing, publishing, downloading and transcoding media streams in real-time and via post-processing. 0 and LGPL 3. Update 2: It seems like there is a problem when I start the ffmpeg command after the stream is already published. There are several options to open a file from clouds and save files to them as well. 1 2 3 4 5 6 7 8 9 10 11 12 13 14 15 #第一种:基于已有视频 1. The HLS is the safest protocol today for scaling live streaming to larger audience. ffmpeg を使い、HTTP Live Streaming(HLS)をファイルに保存し、保存したファイルからストリーミングを行う方法について ffmpeg mp4 HLS More than 1 year has passed since last update. If it is not installed you can check my article named Installing FFMPEG with Extra Encoding and Decoding Libraries. for development we use it on Mac for testing and just stream a video source from a input movie. Therefore, this technology is able to reach a much larger viewing audience than RTP or other UDP-based protocols. The latest version ffmpeg don't give. What is great about hls. The cpu usage is about 59% though minimum on a quad core i7 which will bloat up to almost 80% and back (much higher and audio issues start with our USB audio capture). Also I noticed once that ffmpeg is working but HLS files are remain old. What Went Wrong - Every once in a while an audio only file would get uploaded, with no video whatsoever. m3u8 -segment_format mpegts audio/audio_%d. Today, I am going to show you guys how to play mp4 video using hls. CPU Usage when using an EC2 c3. 1-23 FFmpeg is a complete, cross-platform solution to record, convert and stream audio and video. It supports almost all audio/video codecs (h264, h265, vp8, vp9, aac, opus, etc. high level synthesis for ffmpeg and bitcoin miner using vivado hls Technical Report (PDF Available) · May 2015 with 1,881 Reads How we measure 'reads'. FFmpeg Please? Web Hosting with Red5, FFmpeg and related libraries? I think of business requirements as the leader in most audio video decisions. -f hls defines the output format HLS -hls_time 4 slices the video and audio into segments with a duration of 4 seconds. The module supports H. mp3 -c:a aac -b:a 128k -f hls -hls_time 7 -hls_list_size 0 -hls_segment_filename file%d. m3u8 -hls_time: duration of each segment -hls_list_size: number of segments to keep -hls_flags delete_segments: delete outdated. A whole new experience for your users to enjoy complete content of your site. Also I noticed once that ffmpeg is working but HLS files are remain old. 2100 and up for the pipe:// URL support. js is that it does not need any player, it works directly on top of a standard HTML element. This tutorial is for using ffmpeg to stream using our services. The drawback is, that you only get one quality setting. deb” its from mx-linux, it’s a fantastic script for filling in missing repository keys within ubuntu, etc. [flv @ 0x1eed900] New audio stream 0:1 at pos:716680 and DTS:0s This only occurs, if the audio on hls side is NOT working. Now I can't figure out how to let ffmpeg pick its default video stream and default audio stream and then all subtitles. GitHub is home to over 40 million developers working together to host and review code, manage projects, and build software together. 26, a new feature was added allowing you to record various HTTP Live Streams (HLS). HLS is supported on desktop browsers, smart TVs, and both Android and iOS mobile devices. Viblast Player feeds media streams to the HTML5 or tag, which makes it extremely easy to use. Hi, I'm trying to encode a aac file that is playable in an embedded player. m files - FFmpeg library converts web. The TVHeadend 3. ID: transcode_live_to_hls, name: Convert live TV to HLS. By “decent”, I mean a high enough resolution so … Continue reading Real-time MPEG-2 encoding. Since we don't currently use srt directly (we convert on the fly to. x January (7) 2016 (42) December (1) November (1) October (11) July (3) June (1) May (2) April (13). It has become a default standard for online delivery of audio and video serving content on host of devices and browser environments. 180 char *cookies; ///< holds HTTP cookie values set in either the initial response or as an AVOption to the HTTP protocol context. For a while it seemed that I found the solution: using ffmpeg to convert the source videos to highly optimized h264 mp4 files. Otherwise, HLS content will not be played normally. To get a full list enter: ffmpeg-formats. The cpu usage is at least half though which is a nice gain. How to Setup OBS with NGINX on Windows for RTMP Streaming + VPS Hosted by Amazon AWS - Duration: 18:59. Use an HLS stream as source. Audio - MP3, WAV, WMA, M4A, AAC, and OGG are all common audio formats which are supported by FFmpeg. At its core is the FFmpeg program itself, designed for command-line-based processing of video and audio files, and widely used for format transcoding, basic editing (trimming. " The above lack of support for AAC is what got me in trouble in the first place. 265/HEVC MPEG Dynamic Adaptive Streaming over HTTP (MPEG-DASH) P2P Streaming Streaming - Mobile. 0 and LGPL 3. When remove -hls_flags single_file the splited ts files can work. With RTMP server your video files have a latency of only 1 or 2 seconds, but then after encoding on the server to HLS for a html5 player the latency is much higher perhaps in the order of 10 seconds, taking in to account this is for vod, meaning video streaming the latency is not that important. Stream #0:3[0x102](por): Audio: aac_latm ([17][0][0][0] / 0x0011), 48000 Hz, stereo, fltp (visual impaired) How to create the HLS streams. HLS is supported on desktop browsers, smart TVs, and both Android and iOS mobile devices. Includes audio if input provides it. [Video Coming soon] In this tutorial series i will use Ffmpeg, Nginx + Nginx-rtmp-module + Nodejs create live streaming service allow user connect their camera to their account and display live video on user’s dashboard. It works but there is a 20s delay between the time the stream starts to the time it actually starts playing. m3u8 streams) are a little harder to come by due to the nature of the technology. I've downloaded an example from a radio-live-stream. Another way of streaming video and audio from youtube-dl to ffmpeg is using a pipe. See the iPhone article for a list of supported codecs as well as Apple's HTTP Live Streaming FAQ. 2 of nginx-rtmp-module I've added support for HLS variant playlists. I've done some significant experimentation with different options for encoding MPEG-2 video from a live video source with ffmpeg. I've been lurking for a while now and I finally created an account because I'm stuck on this particular problem. FFmpeg helped me in transcoding AAC streams to MP3 for the AIR on iOS app. Personal reference of FFmpeg options I have used on projects. HLS audio gets shortly muted on discontinuity 614 Views 1 Reply. It allows checking media streams for protocol-specific issues and various quality parameters. Connecting to your Hikvision IP camera* Try the following connection options in iSpy or Agent to connect to your Hikvision IP camera. It has become a default standard for online delivery of audio and video serving content on host of devices and browser environments. Active 1 year, 3 months ago. It can work with audio, images, and video in basically any codec or format used in the past 20 years. This is the source code for the hls daemon. There is no mature stable open-source HLS HTML5 player AFAIK. Otherwise, HLS content will not be played normally. I'm able to capture video as. For example: ffmpeg -i in. Codec ID : 15 In Audio section. It can also convert between arbitrary sample rates and resize video on the fly with a high quality polyphase filter. Hi, I'm trying to encode a aac file that is playable in an embedded player. Re: [FFmpeg-trac] #2617(avformat:closed): Playback of HLS fails when one of the variant streams are down FFmpeg [FFmpeg-trac] #8449(fate:new): FFmpeg failed to run sub-microdvd-remux test on release|x86 and debug|x86 configuration with VS2017 on windows FFmpeg. HLS av_read_frame delays on each segment file. js - ffmpeg-hls. This is the ffmpeg command: ffmpeg -y -i input. HLS, which is also known as HTTP Live Streaming, is an HTTP-based protocol implemented by Apple. FFmpeg now supports also Apple HTTP Live Streaming as an input protocol. To achieve that I developed a group of bash scripts that are able to trim a HLS stream using ffmpeg. FFMPEG is also free and open-source. HLS means HTTP Live streaming. Similarly, you can convert media files to any format of your choice. All you have to do is execute a single line command. HostGator only offers installation services for FFmpeg on Dedicated Servers. There are now two versions of the PlayHLS plugin - V1. 7 seconds latency. Kodi doesn't seem to support HLS (m3u8) streams with seperate audio tracks. mp4 -vn output. It is a work in progress. com - [email protected] I encode/segment to HLS with FFmpeg using the following command parameters(In my case, the output came out as. FMUSER FBE200 Encoder H. m4a file instead of splitting it up in to many 7 second files. FFMpeg es un potentísimo sistema para grabar, capturar o transformar vídeos y formatos, con el que se puede realizar casi cualquier operación de vídeo. Convert Audio Files with FFMPeg. How to Convert MP4 to HLS with FFmpeg FFmpeg is a free to use software project that includes a number of programs and suite of libraries to handle audio, video, and other types of streams and multimedia files. video -vn -acodec libvorbis -ab 128k -dash 1 my_audio. Example: When I watch any HLS stream and the stream isnt working anymore (need to update) then ffmpeg dosent stop for a longer while and I see the info "Last messages repeated" X times running go on and does increase the counter. I found this link https://www. The work was based on the Kickflip SDK. The module supports H. on Using FFmpeg as a HLS streaming server (Part 2) – Enhanced HLS Segmentation The livestream with constant segment duration including x264 video encoding and aac audio encoding is working well. The -vn option tells ffmpeg to ignore video. Today, I am going to show you guys how to play mp4 video using hls. Central to HLS is the delivery of content using the HTTP protocol—the same protocol that powers the web. SDL Role and responsibilities : > Implementing the AV sync functionality > Implementing the demuxer to parse the TS segments to get the Video and Audio packets. The objective was to create video that was approximately 3 Mbps at a “decent” resolution; this video would be manually edited and then converted to Web quality. Since all most all the video streaming services use web-optimized video MP4 format, we are going to download M3U8 video files with FFmpeg and convert them to MP4 format. Qosifire: live streaming quality monitoring. from the developer: Have the module auto-detect audio only streams, so the splitanywhere option is not required. ffmpeg is a complete, cross-platform solution to record, convert and stream audio and video. FFmpeg作为转码,HLS切片,m3u8更新工具。. In the article you referenced please note that several stream files are used to achieve the ability to switch from one of the Apple HLS input track to another. How can I use ffmpeg to reduce the size of a video by lowering the quality (as minimally as possible, naturally, because I need it to run on a mobile device that doesn't have much available space)?. Though there are lot of technicalities involved in HLS, the simple thing is the file or stream is converted into small chunks and passed over http for http live streaming. 975238095238095 -hls_segment_type mpegts -hls_playlist_type vod test. m3u8 Upon running the above command you will see the MP4 video being processed in the terminal which will look similar to the following. FFmpeg is a free and open-source project consisting of a vast software suite of libraries and programs for handling video, audio, and other multimedia files and streams. This hls script is launched by an upstart job. You can use all of these as inputs for FFMPEG. While -c:v libx265 tells ffmpeg to encode the new video file in H. FFmpeg is a collection of libraries and tools to process multimedia content such as audio, video, subtitles and related metadata. mkv” -vcodec copy -an -f mp4 “output/%~1. Latest reply on Oct 28, 2017 11 My segments are video-only 4 seconds ffmpeg-encoded. ogg, or any other audio formats. stab library - astats filter - trim and atrim filters - ffmpeg -t and -ss (output-only. The new directive is hls_variant. In this post I hope to help shed some light on what does and does not work. * original version which uses ffmpeg to handle HLS streams. Using FFmpeg with Red5 Pro for live streaming Introduction. m files - FFmpeg library converts web. FFmpeg is a free and open-source project consisting of a vast software suite of libraries and programs for handling video, audio, and other multimedia files and streams. $ ffmpeg -i input. I also wanted to try capturing audio using a USB microphone. Hi, Is there a way to protect the content from being accessed by unauthorized people?. All builds require at least Windows 7 or Mac OS X 10. current_path – is path of our input file specified by the -i option. • Creates HLS assets faster than ffmpeg or shaka packager • Gathers its metadata while segmenting, so codecs, average bandwidth, bandwidth, and resolution are automatically added to the manifests.